Dr Who Complete Download Torrent

  

Entries in section: 143 Shown entries: 11-20. Pages: « 1 2 3 4. The Handmaid's Tale Season 2. It's time to renew our list of the 10 best torrent sites for 2021. While favorite sites continue to find a place as one of the top torrent sites, IsoHunt and TorrentProject.se went offline. Download Doctor Who tv series with direct download links for free on GrabtheBeast. Watch all Season of Doctor Who tv show online in high quality and small size with English Subtitles directly. Javascript is disabled in your browser. A torrent itself isn’t illegal, but downloading unauthorized copyrighted material is. By downloading Microsoft Office 2019 torrent, you may unwittingly end up violating the law. If your provider catches you doing illegal actions, you will be punished. This can range from a warning letter and restriction of your Internet connection to a lawsuit.

Dr. Alban - Look Who's Talking!
(The Video and More)
-Страна: Sweden
Жанр: Pop/Disco
Продолжительность: 00:50:36
Год выпуска: 1994 г.
Лейбл: BMG Video-Треклист:
01. Look Who's Talking (Original Video)
02. It's My Life (Original Video)
03. Hello Africa (Original Video)
04. No Coke (Original Video)
05. One Love (Original Video)
06. Sing Hallelujah (Original Video)
07. It's My Life (Live - ZDF Pop Show 1993)
08. Sing Hallelujah (Live - ZDF Pop Show 1993)
09. U & Mi (Original Video)
10. No Coke (Live)--Разбивка на главы по трекам: есть
Качество : VHSRip -> DVD5
Формат: DVD video
Видео кодек: MPEG2
Аудио кодек: PCM
Видео: 7.978 Kbps, 720*576 (4:3), at 25.000 fps, MPEG Video (PAL)
Аудио: 1.536 Kbps, 48.0 KHz, 16 bits, 2 ch, PCM
-

DVDinfo

Title: Dr.Alban - Look Who's Talking! (1994) DVDSize: 3.35 Gb ( 3 510 092,00 KBytes ) - DVD-5Enabled regions: 1, 2, 3, 4, 5, 6, 7, 8
VTS_01 : Play Length: 00:50:36 Video: PAL 4:3 (720x576) VBR Audio: English (LinearPCM, 2 ch)
* Menus Information *
VIDEO_TS MenuVideo: PAL 4:3 (720x576) VBRAudio: Not specified (LinearPCM, 2 ch)Language Unit : Title Menu
VTS_01 MenuVideo: PAL 4:3 (720x576) VBRLanguage Unit : Root Menu

MediaInfo

General
Complete name : D:Dr.Alban - Look Who's Talking! (1994) DVDVIDEO_TSVIDEO_TS.BUP
Format : DVD Video
Format profile : Menu
File size : 12.0 KiB
Overall bit rate mode : Variable
Video
ID : 224 (0xE0)
Format : MPEG Video
Format version : Version 2
Bit rate mode : Variable
Width : 720 pixels
Height : 576 pixels
Display aspect ratio : 4:3
Frame rate : 25.000 fps
Standard : PAL
Compression mode : Lossy
Audio
Format : PCM
Channel(s) : 2 channels
Sampling rate : 48.0 KHz
Text
Format : RLE
Format/Info : Run-length encoding
Bit depth : 2 bits
General
Complete name : D:Dr.Alban - Look Who's Talking! (1994) DVDVIDEO_TSVIDEO_TS.IFO
Format : DVD Video
Format profile : Menu
File size : 12.0 KiB
Overall bit rate mode : Variable
Video
ID : 224 (0xE0)
Format : MPEG Video
Format version : Version 2
Bit rate mode : Variable
Width : 720 pixels
Height : 576 pixels
Display aspect ratio : 4:3
Frame rate : 25.000 fps
Standard : PAL
Compression mode : Lossy
Audio
Format : PCM
Channel(s) : 2 channels
Sampling rate : 48.0 KHz
Text
Format : RLE
Format/Info : Run-length encoding
Bit depth : 2 bits
General
Complete name : D:Dr.Alban - Look Who's Talking! (1994) DVDVIDEO_TSVIDEO_TS.VOB
Format : MPEG-PS
File size : 44.0 KiB
Duration : 158ms
Overall bit rate : 2 281 Kbps
Video
ID : 224 (0xE0)
Format : MPEG Video
Format version : Version 2
Format profile : [email protected]
Format settings, BVOP : No
Format settings, Matrix : Custom
Duration : 40ms
Maximum bit rate : 8 000 Kbps
Width : 720 pixels
Height : 576 pixels
Display aspect ratio : 4:3
Frame rate : 25.000 fps
Standard : PAL
Color space : YUV
Chroma subsampling : 4:2:0
Bit depth : 8 bits
Scan type : Progressive
Scan order : Bottom Field First
Compression mode : Lossy
Color primaries : BT.601 NTSC
Transfer characteristics : BT.601
Matrix coefficients : BT.601
Audio
ID : 189 (0xBD)-160 (0xA0)
Format : PCM
Format settings, Endianness : Big
Format settings, Sign : Signed
Muxing mode : DVD-Video
Duration : 158ms
Bit rate mode : Constant
Bit rate : 1 536 Kbps
Channel(s) : 2 channels
Sampling rate : 48.0 KHz
Bit depth : 16 bits
Stream size : 29.6 KiB (67%)
Menu
General
Complete name : D:Dr.Alban - Look Who's Talking! (1994) DVDVIDEO_TSVTS_01_0.BUP
Format : DVD Video
Format profile : Program
File size : 50.0 KiB
Duration : 50mn 36s
Overall bit rate mode : Variable
Overall bit rate : 135 bps
Video
ID : 224 (0xE0)
Format : MPEG Video
Format version : Version 2
Duration : 50mn 36s
Bit rate mode : Variable
Width : 720 pixels
Height : 576 pixels
Display aspect ratio : 4:3
Frame rate : 25.000 fps
Standard : PAL
Compression mode : Lossy
Audio
ID : 0 (0x0)
Format : PCM
Duration : 50mn 36s
Channel(s) : 2 channels
Sampling rate : 48.0 KHz
Language : English
Menu
Duration : 50mn 36s
00:00:00.000 : Chapter 1
00:04:18.800 : Chapter 2
00:10:05.360 : Chapter 3
00:15:56.400 : Chapter 4
00:20:34.800 : Chapter 5
00:28:59.280 : Chapter 6
00:33:26.680 : Chapter 7
00:38:14.800 : Chapter 8
List (Audio) : 0
General
Complete name : D:Dr.Alban - Look Who's Talking! (1994) DVDVIDEO_TSVTS_01_0.IFO
Format : DVD Video
Format profile : Program
File size : 50.0 KiB
Duration : 50mn 36s
Overall bit rate mode : Variable
Overall bit rate : 135 bps
Video
ID : 224 (0xE0)
Format : MPEG Video
Format version : Version 2
Duration : 50mn 36s
Bit rate mode : Variable
Width : 720 pixels
Height : 576 pixels
Display aspect ratio : 4:3
Frame rate : 25.000 fps
Standard : PAL
Compression mode : Lossy
Audio
ID : 0 (0x0)
Format : PCM
Duration : 50mn 36s
Channel(s) : 2 channels
Sampling rate : 48.0 KHz
Language : English
Menu
Duration : 50mn 36s
00:00:00.000 : Chapter 1
00:04:18.800 : Chapter 2
00:10:05.360 : Chapter 3
00:15:56.400 : Chapter 4
00:20:34.800 : Chapter 5
00:28:59.280 : Chapter 6
00:33:26.680 : Chapter 7
00:38:14.800 : Chapter 8
List (Audio) : 0
General
Complete name : D:Dr.Alban - Look Who's Talking! (1994) DVDVIDEO_TSVTS_01_0.VOB
Format : MPEG-PS
File size : 90.0 KiB
Duration : 40ms
Overall bit rate : 18.4 Mbps
Video
ID : 224 (0xE0)
Format : MPEG Video
Format version : Version 2
Format profile : [email protected]
Format settings, BVOP : No
Format settings, Matrix : Custom
Duration : 40ms
Maximum bit rate : 8 000 Kbps
Width : 720 pixels
Height : 576 pixels
Display aspect ratio : 4:3
Frame rate : 25.000 fps
Standard : PAL
Color space : YUV
Chroma subsampling : 4:2:0
Bit depth : 8 bits
Scan type : Progressive
Scan order : Bottom Field First
Compression mode : Lossy
Color primaries : BT.601 NTSC
Transfer characteristics : BT.601
Matrix coefficients : BT.601
Text
ID : 189 (0xBD)-32 (0x20)
Format : RLE
Format/Info : Run-length encoding
Muxing mode : DVD-Video
Menu
General
Complete name : D:Dr.Alban - Look Who's Talking! (1994) DVDVIDEO_TSVTS_01_1.VOB
Format : MPEG-PS
File size : 900 MiB
Duration : 12mn 57s
Overall bit rate mode : Variable
Overall bit rate : 9 707 Kbps
Video
ID : 224 (0xE0)
Format : MPEG Video
Format version : Version 2
Format profile : [email protected]
Format settings, BVOP : Yes
Format settings, Matrix : Custom
Format settings, GOP : M=3, N=12
Duration : 12mn 57s
Bit rate mode : Variable
Bit rate : 7 978 Kbps
Maximum bit rate : 8 494 Kbps
Width : 720 pixels
Height : 576 pixels
Display aspect ratio : 4:3
Frame rate : 25.000 fps
Standard : PAL
Color space : YUV
Chroma subsampling : 4:2:0
Bit depth : 8 bits
Scan type : Interlaced
Scan order : Top Field First
Compression mode : Lossy
Bits/(Pixel*Frame) : 0.769
Stream size : 740 MiB (82%)
Color primaries : BT.601 NTSC
Transfer characteristics : BT.601
Matrix coefficients : BT.601
Audio
ID : 189 (0xBD)-160 (0xA0)
Format : PCM
Format settings, Endianness : Big
Format settings, Sign : Signed
Muxing mode : DVD-Video
Duration : 12mn 57s
Bit rate mode : Constant
Bit rate : 1 536 Kbps
Channel(s) : 2 channels
Sampling rate : 48.0 KHz
Bit depth : 16 bits
Stream size : 142 MiB (16%)
Menu
General
Complete name : D:Dr.Alban - Look Who's Talking! (1994) DVDVIDEO_TSVTS_01_2.VOB
Format : MPEG-PS
File size : 900 MiB
Duration : 13mn 52s
Overall bit rate mode : Variable
Overall bit rate : 9 067 Kbps
Video
ID : 224 (0xE0)
Format : MPEG Video
Format version : Version 2
Format profile : [email protected]
Format settings, BVOP : Yes
Format settings, Matrix : Custom
Duration : 13mn 52s
Bit rate mode : Variable
Bit rate : 7 350 Kbps
Maximum bit rate : 8 494 Kbps
Width : 720 pixels
Height : 576 pixels
Display aspect ratio : 4:3
Frame rate : 25.000 fps
Standard : PAL
Color space : YUV
Chroma subsampling : 4:2:0
Bit depth : 8 bits
Scan type : Interlaced
Scan order : Top Field First
Compression mode : Lossy
Bits/(Pixel*Frame) : 0.709
Stream size : 730 MiB (81%)
Color primaries : BT.601 NTSC
Transfer characteristics : BT.601
Matrix coefficients : BT.601
Audio
ID : 189 (0xBD)-160 (0xA0)
Format : PCM
Format settings, Endianness : Big
Format settings, Sign : Signed
Muxing mode : DVD-Video
Duration : 13mn 52s
Bit rate mode : Constant
Bit rate : 1 536 Kbps
Channel(s) : 2 channels
Sampling rate : 48.0 KHz
Bit depth : 16 bits
Delay relative to video : -334ms
Stream size : 152 MiB (17%)
Menu
General
Complete name : D:Dr.Alban - Look Who's Talking! (1994) DVDVIDEO_TSVTS_01_3.VOB
Format : MPEG-PS
File size : 900 MiB
Duration : 13mn 15s
Overall bit rate mode : Variable
Overall bit rate : 9 492 Kbps
Video
ID : 224 (0xE0)
Format : MPEG Video
Format version : Version 2
Format profile : [email protected]
Format settings, BVOP : Yes
Format settings, Matrix : Custom
Format settings, GOP : M=3, N=12
Duration : 13mn 15s
Bit rate mode : Variable
Bit rate : 7 767 Kbps
Maximum bit rate : 8 494 Kbps
Width : 720 pixels
Height : 576 pixels
Display aspect ratio : 4:3
Frame rate : 25.000 fps
Standard : PAL
Color space : YUV
Chroma subsampling : 4:2:0
Bit depth : 8 bits
Scan type : Interlaced
Scan order : Top Field First
Compression mode : Lossy
Bits/(Pixel*Frame) : 0.749
Stream size : 736 MiB (82%)
Color primaries : BT.601 NTSC
Transfer characteristics : BT.601
Matrix coefficients : BT.601
Audio
ID : 189 (0xBD)-160 (0xA0)
Format : PCM
Format settings, Endianness : Big
Format settings, Sign : Signed
Muxing mode : DVD-Video
Duration : 13mn 15s
Bit rate mode : Constant
Bit rate : 1 536 Kbps
Channel(s) : 2 channels
Sampling rate : 48.0 KHz
Bit depth : 16 bits
Delay relative to video : -377ms
Stream size : 146 MiB (16%)
Menu
General
Complete name : D:Dr.Alban - Look Who's Talking! (1994) DVDVIDEO_TSVTS_01_4.VOB
Format : MPEG-PS
File size : 727 MiB
Duration : 10mn 29s
Overall bit rate mode : Variable
Overall bit rate : 9 686 Kbps
Video
ID : 224 (0xE0)
Format : MPEG Video
Format version : Version 2
Format profile : [email protected]
Format settings, BVOP : Yes
Format settings, Matrix : Custom
Duration : 10mn 29s
Bit rate mode : Variable
Bit rate : 7 957 Kbps
Maximum bit rate : 8 494 Kbps
Width : 720 pixels
Height : 576 pixels
Display aspect ratio : 4:3
Frame rate : 25.000 fps
Standard : PAL
Color space : YUV
Chroma subsampling : 4:2:0
Bit depth : 8 bits
Scan type : Interlaced
Scan order : Top Field First
Compression mode : Lossy
Bits/(Pixel*Frame) : 0.767
Stream size : 597 MiB (82%)
Color primaries : BT.601 NTSC
Transfer characteristics : BT.601
Matrix coefficients : BT.601
Audio
ID : 189 (0xBD)-160 (0xA0)
Format : PCM
Format settings, Endianness : Big
Format settings, Sign : Signed
Muxing mode : DVD-Video
Duration : 10mn 29s
Bit rate mode : Constant
Bit rate : 1 536 Kbps
Channel(s) : 2 channels
Sampling rate : 48.0 KHz
Bit depth : 16 bits
Delay relative to video : -332ms
Stream size : 115 MiB (16%)
Menu
-


t_4821003.torrent
Torrent: Registered · [ 2017-05-12 19:20 ] · cbb0daf60671ee50c58c5a1613f38e47ad6c2fb1

18 KB

Status:checked
Completed:0 times
Size:3.35 GB
Rating:
(Votes: 0)
Say thanks:0
Похожие темы
ForumTopicAuthorTorrentRepliesLast Post
./templates/default/images/folder_dl.gifEurodance, Euro-House, Technopop (lossy)(Eurodance / Europop) Dr. Alban & Folkhemmet - Drama (Single) -...0014 MB

076

1

2020-08-04 22:00
rychkalov
./templates/default/images/folder_dl.gifEurodance, Euro-House, Technopop (lossless)(Eurodance) Dr. Alban - 1993 - One Love. The Album [Second Edition]...00366 MB

057

0

2020-06-30 18:15
Shadow123
./templates/default/images/folder_dl.gifProgressive & Art-Rock (lossy)(Crossover Prog) Patrick Moraz (& Syrinx) / Moraz Alban Project -...002.27 GB

082

1

2020-03-18 19:25
Nestor_13
./templates/default/images/folder_dl.gifEurodance, Euro-House, Technopop (lossy)(House, Pop Rap) Swahili Nation (Feat. Dr. Alban) - 2 Singles -...00126 MB

051

0

2020-03-14 21:20
rychkalov
./templates/default/images/folder_dl.gifEurodance, Euro-House, Technopop (lossless)(Pop, Eurodance) [WEB] Dr. Alban - The Ultimate Collection 1990-2014...00271 MB

0259

2

2019-11-02 01:06
Shadow123
./templates/default/images/folder_dl.gifЗарубежный джаз (lossy)(Contemporary Jazz) Jean-Chritophe Cholet, Alban Darche, Mathias...00171 MB

0186

1

2018-09-13 08:16
Dimas28
./templates/default/images/folder_dl.gifModern Creative, Third Stream (lossless)(Contemporary Jazz, Modern Big Band) [CD] Jean-Christophe Cholet,...00371 MB

0207

0

2018-09-13 06:12
Makci
./templates/default/images/folder_dl.gifМузыка Lossy (AAC)(Pop) Dr. Alban - The Very Best Of 1990 - 1997 - 1997, AAC (tracks),...01147 MB

0369

2

2018-01-03 23:26
Andrew1225
./templates/default/images/folder_dl.gifБиографии. Личности и кумирыЛагерфельд / Karl Lagerfeld, un roi seul (Тьерри Демезьер / Thierry...001.22 GB

0381

1

2017-06-26 23:42
Nestor_13
./templates/default/images/folder_dl.gifEurodance, Disco (DVD Video)Dr. Alban - Live in Metro Jackpot (Kiev) [2004, Pop/Disco, DVD5]002.34 GB

0233

1

2017-05-12 19:26
manic-manic

The number of people looking for Microsoft Office 2019 torrent is growing every day. The tendency is obvious since this package of programs has long become popular among millions of users all over the globe, supplying them with all the necessary tools for work with text, spreadsheets and presentations.

Why Microsoft Office 2019 Torrent Demanded?

Microsoft Office suite has become a must-have not only for large corporations but for individual users as well. The latter face the necessity to download Office programs once they understand that apps integrated into their OS are too basic and can’t satisfy their needs.

For instance, Word is ideal for people, who regularly work with documents. PowerPoint contains diverse instruments that allow creating interesting presentations. Outlook is indispensable for managing calendars and emails.

  • Check out more Free Personal Document Management Software.
Dr who complete download torrent download

Microsoft Office 2019 Torrent Disadvantages

There are many reasons why you shouldn’t use Microsoft Office 2019 Torrent. Here is a list of everything that awaits you if you still decide to do it.

100% Computer Infection

If you decide to use a cracked Office version, get ready to deal with adware and trojans that will kill your system or make your work impossibly annoying.

It Is Illegal

A torrent itself isn’t illegal, but downloading unauthorized copyrighted material is. By downloading Microsoft Office 2019 torrent, you may unwittingly end up violating the law. If your provider catches you doing illegal actions, you will be punished. This can range from a warning letter and restriction of your Internet connection to a lawsuit.

You Can’t Rely on Such a Program

When pirates hack Office, they change the program files in every way and delete some of them. That’s why, there may be lots of failures like “not saving your data when closing”, or “abrupt program closing down at a wrong moment”.

No Updates

With each new version, Microsoft adds something new to its software package, up to a complete format change, as it was in 2007, when DOC was replaced by DOCX. Using the outdated version, you may have difficulties opening files sent by your colleagues, who use a newer edition and vice versa.

No Customers Support

Being an advanced Microsoft Office user is not an easy task, as there are hundreds of tools in the pack, and it’s not always possible to understand how they all work. And if you take into account the errors that may arise during work, then you cannot do without customer support. But if you have a problem using the version you get through Microsoft Office 2019 torrent, no one will help you.

Download Microsoft Office 2019 without Torrent

If you’ve changed your mind about using an illegal version of Microsoft Office and want to get suite without breaking the law, you will need to pay $6.99 a month, or $69 annually. But you can use the whole package for free for 30 days. There are also more expensive plans for a family - $99.99 (up to 6 users) and for business - $8.25 user/month.

Free Alternatives

Due to the popularity of Office and its price, many independent developers have made free alternatives to this software package. Actually, even Microsoft itself made a free version of Office.

1. Microsoft Office Online

  • Native compatibility with Office document formats
  • UI is very similar to all Office versions
  • Offline document editing is impossible

Microsoft provides free access to its Office suite online through a browser. However, the number of programs is limited, including only Word, Excel, PowerPoint, and OneNote. To work with the web version of MS Office, you need a Microsoft account.

MS Office Online supports all Microsoft document formats - docx, xlsx, pptx and their earlier versions (doc, xls, ppt), as well as open formats odt, ods, odp. This version is intuitive to use, since its interface is similar to the new editions of desktop Office. Created documents are saved on OneDrive.

  • Choose the best free PDF reader to work with PDF files.

2. LibreOffice

Doctor Who Torrent Download

  • Amazing support including a user’s manual
  • Works offline
  • Dated design from 2003
  • Mobile applications capable of viewing files only
  • No cooperation feature

One of the most famous office document editors, which is preinstalled in the popular Ubuntu distribution kit, and is available on almost all platforms - both desktop and mobile.

It provides analogs to almost all popular elements of the MS Office Suite: Writer (Word), Calc (Excel), Impress (PowerPoint), Base (Access), and Draw (Visio) and allows getting these tools legally unlike Microsoft Office 2019 torrent. By default, LibreOffice works with free OpenDocument formats, but can read MS Office documents and export your work in them.

Download

3. Apple iWork

  • Mac brand design – very stylish
  • You can save in .DOC, .RTF, and .Pages files
  • Well-thought toolbar layout
  • Templates are available but they are not very good
  • .Pages extension issues, especially on Windows
  • Users have to save in .Doc or RTF for other people to open their files

Apple users have their own free alternative to Office. Apple Pages, Numbers, and Keynote allow you to work with documents, spreadsheets, and presentations. To work with the package, you need Mac OS, where it is preinstalled, or an Apple ID to access the iCloud cloud.

Dr Who Complete Download Torrent Full

The software package allows working cooperatively with documents even if you use Windows OS. The interface of this office suite is very different from Microsoft Office. For example, in spreadsheets, you won’t see a table, but a blank sheet. You have to get used to it.